Chris Norman — Выступление в Юрмале [21.07] (2017) DVB

СКАЧАТЬ TORRENT ФАЙЛ

Исполнитель/Группа: Chris Norman (Крис Норман)
Жанр: ROCK
Год выпуска: 2017
Продолжительность: 00:10:57

Описание: Выступление Криса Нормана в Юрмале 21 июля 2017 года.

Формат: MPG
Качество: DVB
Видео кодек: MPEG-2
Аудио кодек: MP2
Видео: MPEG-2, ~3500 Kbps, [email protected] (16:9), 25fps
Аудио: MP2, 48000Hz, 2ch, 192 kbps
Треклист1.Meet you at midnicht
2.Gypsy queen
3.Iving next door to aliceMedaInfoGeneral
ID : 16 (0x10)
Complete name : D:Chris_Norman_21.07.17.mpg
Format : MPEG-TS
File size : 299 MiB
Duration : 10 min 57 s
Overall bit rate mode : Variable
Overall bit rate : 3 816 kb/s
FileExtension_Invalid : ts m2t m2s m4t m4s tmf ts tp trp ty

Video
ID : 7311 (0x1C8F)
Menu ID : 7310 (0x1C8E)
Format : MPEG Video
Format version : Version 2
Format profile : Main@Main
Format settings, BVOP : Yes
Format settings, Matrix : Custom
Format settings, GOP : Variable
Format settings, picture st : Frame
Codec ID : 2
Duration : 10 min 57 s
Bit rate mode : Variable
Bit rate : 3 434 kb/s
Maximum bit rate : 15.0 Mb/s
Width : 704 pixels
Height : 576 pixels
Display aspect ratio : 16:9
Frame rate : 25.000 FPS
Standard : PAL
Color space : YUV
Chroma subsampling : 4:2:0
Bit depth : 8 bits
Scan type : Interlaced
Scan order : Top Field First
Compression mode : Lossy
Bits/(Pixel*Frame) : 0.339
Time code of first frame : 00:00:00:00
Time code source : Group of pictures header
GOP, Open/Closed : Open
GOP, Open/Closed of first f : Closed
Stream size : 269 MiB (90%)
Writing library : (dvd5: Jun 16 2014)

Audio
ID : 7312 (0x1C90)
Menu ID : 7310 (0x1C8E)
Format : MPEG Audio
Format version : Version 1
Format profile : Layer 2
Codec ID : 3
Duration : 10 min 57 s
Bit rate mode : Constant
Bit rate : 192 kb/s
Channel(s) : 2 channels
Sampling rate : 48.0 kHz
Compression mode : Lossy
Delay relative to video : 40 ms
Stream size : 15.1 MiB (5%)Скриншоты