Бутусов — Выступление на фестивале Нашествие (2017) WEBRip 720p

СКАЧАТЬ TORRENT ФАЙЛ

Исполнитель/Группа: Вячеслав Бктусов
Жанр: Rock
Год выпуска: 2017
Продолжительность: 00:58:07

Описание: Выступление Вячеслава Бктусова на фестивале Нашествие 7 июля 2017 года.

Формат: MKV
Качество: WEBRip 720p
Видео кодек: H.264
Аудио кодек: AAC
Видео: H.264 1280 x 720 (16:9) 30 fps 4 350 Kbps
Аудио: AAC 48000Hz, 2ch, 192 kbps

Треклист1.Гудбай, Америка
2.Прогулки на воде
3.Тутанхамон
4.Одинокая птица
5.Взгляд с экрана
6.Казанова
7.Эта музыка будет вечной
8.Зверь
9.Хлоп-хлоп
10.Шар цвета хаки
11.Скованные одной цепью
12.Я хочу быть с тобойMedaInfoComplete name : D:Butusov_2017.mkv
Format : Matroska
Format version : Version 4 / Version 2
File size : 1.84 GiB
Duration : 58 min 7 s
Overall bit rate : 4 534 kb/s
Encoded date : UTC 2017-07-16 03:09:21
Writing application : mkvmerge v8.3.0 (‘Over the Horizon’) 64bit
Writing library : libebml v1.3.1 + libmatroska v1.4.2

Video
ID : 1
Format : AVC
Format/Info : Advanced Video Codec
Format profile : Main@L4.1
Format settings, CABAC : Yes
Format settings, ReFrames : 4 frames
Codec ID : V_MPEG4/ISO/AVC
Duration : 58 min 7 s
Bit rate : 4 341 kb/s
Width : 1 280 pixels
Height : 720 pixels
Display aspect ratio : 1.944
Original display aspect rat : 1.945
Frame rate mode : Constant
Frame rate : 30.000 FPS
Standard : NTSC
Color space : YUV
Chroma subsampling : 4:2:0
Bit depth : 8 bits
Scan type : Progressive
Bits/(Pixel*Frame) : 0.157
Stream size : 1.76 GiB (96%)
Language : English
Default : Yes
Forced : No
Color range : Limited
Color primaries : BT.709
Transfer characteristics : BT.709
Matrix coefficients : BT.709

Audio
ID : 2
Format : AAC
Format/Info : Advanced Audio Codec
Format profile : LC
Codec ID : A_AAC
Duration : 58 min 7 s
Bit rate : 192 kb/s
Channel(s) : 2 channels
Channel positions : Front: L R
Sampling rate : 48.0 kHz
Frame rate : 46.875 FPS (1024 spf)
Compression mode : Lossy
Stream size : 78.7 MiB (4%)
Language : English
Default : Yes
Forced : NoСкриншоты

Источник aRutor.org