Комментарии к записи Лолита Милявская — Концерт у Маргулиса на НТВ [16.09] (2017) DVB отключены

СКАЧАТЬ TORRENT ФАЙЛ

Исполнитель: Лолита Милявская
Жанр: POP
Год выпуска: 2017
Продолжительность: 00:51:45

Описание: В гости к Евгению Маргулису пришла популярная эстрадная певица Лолита. Она рассказала о своем детстве, образовании, об отношении к рок-н-роллу, поделилась своими эмоциями от знакомства с Rammstein, исполнила свои лучшие хиты, а также преподнесла публике большой сюрприз — новую песню.

Формат: MKV
Качество: DVB
Видео кодек: MPEG-2
Аудио кодек: MP2
Видео: MPEG-2,~2800 Kbps,[email protected] (16:9), 25fps
Аудио: MP2, 2 ch, 128 Kbps, 48000Hz

MedaInfoLolita_16.09.17.mkv
Format : Matroska
Format version : Version 4 / Version 2
File size : 1.08 GiB
Duration : 51mn 45s
Overall bit rate mode : Variable
Overall bit rate : 2 980 Kbps
Writing application : Lavf57.71.100
Writing library : Lavf57.71.100 / Lavf57.71.100
ErrorDetectionType : Per level 1

Video
ID : 1
Format : MPEG Video
Format version : Version 2
Format profile : Main@Main
Format settings, BVOP : Yes
Format settings, Matrix : Custom
Format settings, GOP : M=3, N=12
Format settings, picture structure : Frame
Codec ID : V_MPEG2
Codec ID/Info : MPEG 1 or 2 Video
Duration : 51mn 45s
Bit rate mode : Variable
Bit rate : 2 792 Kbps
Maximum bit rate : 3 000 Kbps
Width : 720 pixels
Height : 576 pixels
Display aspect ratio : 16:9
Frame rate mode : Constant
Frame rate : 25.000 fps
Standard : PAL
Color space : YUV
Chroma subsampling : 4:2:0
Bit depth : 8 bits
Scan type : Interlaced
Scan order : Top Field First
Compression mode : Lossy
Bits/(Pixel*Frame) : 0.269
Time code of first frame : 06:15:06:02
Time code source : Group of pictures header
GOP, Open/Closed : Open
Stream size : 1.01 GiB (94%)
Default : Yes
Forced : No
DURATION : 00:51:45,160000000

Audio
ID : 2
Format : MPEG Audio
Format version : Version 1
Format profile : Layer 2
Codec ID : A_MPEG/L2
Codec ID/Hint : MP2
Duration : 51mn 45s
Bit rate mode : Constant
Bit rate : 128 Kbps
Channel(s) : 2 channels
Sampling rate : 48.0 KHz
Compression mode : Lossy
Delay relative to video : 145ms
Stream size : 47.4 MiB (4%)
Language : Russian
Default : Yes
Forced : No
DURATION : 00:51:45,121000000Скриншоты

Comments are closed.