Erna Rot — Angst & Weltschmerz (2018) FLAC

Дата: 8th Ноябрь 2018 Автор: Hadouken в Музыка
Комментарии к записи Erna Rot — Angst & Weltschmerz (2018) FLAC отключены

СКАЧАТЬ TORRENT ФАЙЛ

Название: Angst & Weltschmerz
Исполнитель: Erna Rot
Наличие водяных знаков: Нет
Год: 2018
Жанр: Jazz
Издатель: ACT Music
Продолжительность: 00:51:59
Формат/Кодек: FLAC
Разрядность: 24/44,1
Количество каналов: 2.0
Битрейт аудио: 1527 kbps

Лог проверки качестваfoobar2000 1.3.9 / Dynamic Range Meter 1.1.1
log date: 2018-09-28 16:05:43

———————————————————————————
Analyzed: Erna Rot / Angst & Weltschmerz
———————————————————————————

DR Peak RMS Duration Track
———————————————————————————
DR10 -0.72 dB -12.40 dB 3:23 01-Angst & Weltschmerz
DR10 -0.72 dB -12.77 dB 3:11 02-Ohne Dich
DR9 -0.72 dB -11.98 dB 3:53 03-Bochum (Nord)
DR9 -0.72 dB -12.84 dB 4:58 04-Gelohnt Hat Es Sich Nicht
DR9 -0.72 dB -11.43 dB 3:52 05-P Wie P
DR9 -0.72 dB -12.53 dB 5:00 06-Der Traum Ist Aus
DR9 -0.72 dB -12.23 dB 2:50 07-Auf Der Sonnenseite
DR9 -0.72 dB -11.36 dB 3:26 08-Loreley
DR10 -0.72 dB -13.29 dB 4:48 09-Am Gefrierpunkt
DR10 -0.72 dB -12.35 dB 2:29 10-Jürgen
DR9 -0.72 dB -12.21 dB 5:12 11-Abbitte
DR11 -0.72 dB -14.40 dB 2:46 12-Nicht Mehr Allein
DR10 -0.72 dB -12.83 dB 2:59 13-Schiff Aus Papier
DR10 -0.72 dB -12.81 dB 3:13 14-Still, Still, Still
———————————————————————————

Number of tracks: 14
Official DR value: DR10

Samplerate: 44100 Hz
Channels: 2
Bits per sample: 24
Bitrate: 1527 kbps
Codec: FLAC
================================================================================Трек-лист01. Angst & Weltschmerz (3:23)
02. Ohne Dich (3:11)
03. Bochum (Nord) (3:53)
04. Gelohnt Hat Es Sich Nicht (4:58)
05. P Wie P (3:52)
06. Der Traum Ist Aus (5:00)
07. Auf Der Sonnenseite (2:50)
08. Loreley (3:26)
09. Am Gefrierpunkt (4:48)
10. Jürgen (2:29)
11. Abbitte (5:12)
12. Nicht Mehr Allein (2:46)
13. Schiff Aus Papier (2:59)
14. Still, Still, Still (3:13)

Comments are closed.