Комментарии к записи Chris Norman — Выступление в Юрмале [21.07] (2017) SATRip-AVC отключены

СКАЧАТЬ TORRENT ФАЙЛ

Исполнитель/Группа: Chris Norman (Крис Норман)
Жанр: ROCK
Год выпуска: 2017
Продолжительность: 00:28:38

Описание: Выступление Криса Нормана в Юрмале 21 июля 2017 года.

Формат: MKV
Качество: SATRip
Видео кодек: H.264
Аудио кодек: AAC
Видео: H.264, ~2 100 Kbps, [email protected] (16:9), 25fps
Аудио: AAC, 48000Hz, 2ch, 192 kbps
Треклист1.Meet you at midnicht
2.Lay Back
3.Sun Is Rising
4.Stumblin' In
5.Gypsy queen
6.Iving next door to alice
7.Needles and PinsMedaInfoChris_Norman_21.07.17.mkv
Format : Matroska
Format version : Version 4 / Version 2
File size : 478 MiB
Duration : 28 min 38 s
Overall bit rate : 2 334 kb/s
Encoded date : UTC 2017-07-26 01:59:52
Writing application : mkvmerge v8.3.0 ('Over the Horizon') 64bit
Writing library : libebml v1.3.1 + libmatroska v1.4.2

Video
ID : 1
Format : AVC
Format/Info : Advanced Video Codec
Format profile : High@L3.1
Format settings, CABAC : Yes
Format settings, ReFrames : 4 frames
Format settings, GOP : M=3, N=25
Codec ID : V_MPEG4/ISO/AVC
Duration : 28 min 38 s
Bit rate mode : Constant
Bit rate : 2 154 kb/s
Width : 704 pixels
Height : 576 pixels
Display aspect ratio : 16:9
Frame rate mode : Constant
Frame rate : 25.000 FPS
Standard : PAL
Color space : YUV
Chroma subsampling : 4:2:0
Bit depth : 8 bits
Scan type : Interlaced
Scan type, store method : Separated fields
Scan order : Top Field First
Bits/(Pixel*Frame) : 0.212
Stream size : 439 MiB (92%)
Language : English
Default : Yes
Forced : No
Color range : Limited
Color primaries : BT.601 PAL
Transfer characteristics : BT.470 System B, BT.470 System G
Matrix coefficients : BT.601

Audio
ID : 2
Format : AAC
Format/Info : Advanced Audio Codec
Format profile : LC
Codec ID : A_AAC
Duration : 28 min 38 s
Bit rate : 192 kb/s
Channel(s) : 2 channels
Channel positions : Front: L R
Sampling rate : 48.0 kHz
Frame rate : 46.875 FPS (1024 spf)
Compression mode : Lossy
Stream size : 38.8 MiB (8%)
Language : English
Default : Yes
Forced : NoСкриншоты

Comments are closed.