Tyler, The Creator — Scum Fuck Flower Boy (2017) FLAC

СКАЧАТЬ TORRENT ФАЙЛ

Название: Scum Fuck Flower Boy
Исполнитель: Tyler, The Creator
Год: 2017
Жанр: Rap, Hip-Hop
Продолжительность: 00:47:02
Формат/Кодек: FLAC
Битрейт аудио: Lossless

Описание: «Scum Fuck Flower Boy» — четвертый студийный альбом американского рэпера Tyler Gregory Okonma aka Tyler, The Creator, изданный лейблом Columbia Records. В записи альбома приняли участие Frank Ocean, Lil Wayne, A$AP Rocky, Kali Uchis, Steve Lacy, Roy Ayers, Estelle, Rex Orange County, Anna of the North, а также немецкая krautrock группа Can. В новом альбоме Tyler, The Creator намекнул, что он — гей. В треке «I Ain’t Got Time» артист говорит: «Я целовал белых парней ещё с 2004 года». Главной же песней, полностью посвящённой этой теме, является «Garden Shed»: «У меня была настоящая любовь, нет причины притворяться. Все мои друзья потеряны, они не могли понять мои намёки. Я не хотел с ними общаться. Я говорю им своё местонахождение, но они не желают идти за мной».
Обложку для «Scum Fuck Flower Boy» придумал американский художник Eric White. Предыдущей работой Тайлера был альбом «Cherry Bomb», выпущенный в 2015 году.

ТрекЛист
01. Foreword (ft. Can & Rex Orange County)
02. Where This Flower Blooms (ft. Frank Ocean)
03. Sometimes…
04. See You Again (ft. Kali Uchis)
05. Who Dat Boy? (ft. A$AP Rocky)
06. Pothole (ft. Roy Ayers)
07. Garden Shred (ft. Estelle)
08. Boredom
09. I Ain’t Got Time!
10. 911/Mr. Lonely (ft. Anna of the North, Frank Ocean & Steve Lacy)
11. Dropping Seeds (ft. Lil Wayne)
12. November
13. Glitter
14. Enjoy Right Now Today

AudioChecker
01 -=- 01 Tyler, The Creator — Foreword (feat. Rex Orange County).flac -=- CDDA (100%)
02 -=- 02 Tyler, The Creator — Where This Flower Blooms (feat. Frank Ocean).flac -=- CDDA (100%)
03 -=- 03 Tyler, The Creator — Sometimes….flac -=- CDDA (99%)
04 -=- 04 Tyler, The Creator — See You Again (feat. Kali Uchis).flac -=- CDDA (100%)
05 -=- 05 Tyler, The Creator — Who Dat Boy (feat. A$AP Rocky).flac -=- CDDA (99%)
06 -=- 06 Tyler, The Creator — Pothole (feat. Jaden Smith).flac -=- CDDA (100%)
07 -=- 07 Tyler, The Creator — Garden Shed (feat. Estelle).flac -=- CDDA (100%)
08 -=- 08 Tyler, The Creator — Boredom (feat. Rex Orange County & Anna Of The North).flac -=- CDDA (100%)
09 -=- 09 Tyler, The Creator — I Ain’t Got Time!.flac -=- CDDA (100%)
10 -=- 10 Tyler, The Creator — 911 # Mr. Lonely (feat. Steve Lacy & Frank Ocean).flac -=- CDDA (100%)
11 -=- 11 Tyler, The Creator — Droppin’ Seeds (feat. Lil Wayne).flac -=- CDDA (100%)
12 -=- 12 Tyler, The Creator — November.flac -=- CDDA (100%)
13 -=- 13 Tyler, The Creator — Glitter.flac -=- CDDA (99%)
14 -=- 14 Tyler, The Creator — Enjoy Right Now, Today.flac -=- CDDA (100%)

Сводка 99,79% CDDA

110168068

VA — Melodic Techno Tom II [Compiled by ZeByte] (2017) MP3

СКАЧАТЬ TORRENT ФАЙЛ

Название: Melodic Techno Tom II [Compiled by ZeByte]
Исполнитель: VA
Год: 2017
Жанр: Melodic Techno

Продолжительность: 03:40:40
Формат/Кодек: MP3
Битрейт аудио: 320 kbps

Релиз от: ZeByte и сообщества:

Трек-лист
01. Boris BrejchaAnthurie [07:27]
02. Gotti & Quardo RossiEmpire [06:10]
03. Jamie XxStranger In A Room (Plaka Edit) [06:17]
04. MashkDad [06:59]
05. MelokindTiefgang [03:59]
06. Ali Arsan7 [08:52]
07. PhmStrobe Lights [07:06]
08. Asan SkatDesillusion [11:04]
09. AioMantra (Tony Casanova Remix) [07:19]
10. Claudio GaspariniLas Noches [06:44]
11. David Hasert & Matteo LuisMekaela [07:20]
12. EscendaAddicted To You (Instrumental) [04:08]
13. Stan KolevDerive [07:35]
14. Happy DenyReminiscence [09:52]
15. Jibe & SpitzBlack Mountain [06:26]
16. Quardo RossiLunar Human (Madrem Remix) [06:16]
17. Raggi LuminosiAtmosphere Of The North [05:10]
18. ReferenceGhetto Nebula [10:53]
19. Quardo RossiMaria [06:58]
20. Vittorio RiossCombination [06:33]
21. Gabriel VitelUnkown Places (Tony Casanova Remix) [07:25]
22. TantsuiNo Mercy [08:59]
23. Pablo MoriegoIndifference [10:37]
24. SoleePhoenix (Unique Repeat Remix) [08:27]
25. OrkeatOuuuu [04:59]
26. Christian MoniqueMemoirs [06:10]
27. ProgregMy Space Friend (Quardo Rossi Remix) [06:21]
28. Alex Nemec, FornivaAstrid (Manu Riga Revision Remix) [06:32]
29. Gzoo & Pablo MoriegoPast Against The Future [09:14]
30. Christian LofflerVind (Max Cooper Remix) [08:34]

Дополнительная информация: Продолжаю радовать вас отборной музыкой в стиле Melodic Techno. Встречайте второй том мелодичного техно саунда. На мой взгляд вторая компиляция получилось очень атмосферной и в разы лучше первого тома. Но судить вам!))
Приятного прослушивания! Буду рад вашим комментариям! Оставайтесь подольше на раздаче.
P.S. Если выкладываете мои компиляции на других ресурсах пожалуйста указывайте автора.

Chris Norman — Выступление в Юрмале [21.07] (2017) DVB

СКАЧАТЬ TORRENT ФАЙЛ

Исполнитель/Группа: Chris Norman (Крис Норман)
Жанр: ROCK
Год выпуска: 2017
Продолжительность: 00:10:57

Описание: Выступление Криса Нормана в Юрмале 21 июля 2017 года.

Формат: MPG
Качество: DVB
Видео кодек: MPEG-2
Аудио кодек: MP2
Видео: MPEG-2, ~3500 Kbps, [email protected] (16:9), 25fps
Аудио: MP2, 48000Hz, 2ch, 192 kbps
Треклист1.Meet you at midnicht
2.Gypsy queen
3.Iving next door to aliceMedaInfoGeneral
ID : 16 (0x10)
Complete name : D:Chris_Norman_21.07.17.mpg
Format : MPEG-TS
File size : 299 MiB
Duration : 10 min 57 s
Overall bit rate mode : Variable
Overall bit rate : 3 816 kb/s
FileExtension_Invalid : ts m2t m2s m4t m4s tmf ts tp trp ty

Video
ID : 7311 (0x1C8F)
Menu ID : 7310 (0x1C8E)
Format : MPEG Video
Format version : Version 2
Format profile : Main@Main
Format settings, BVOP : Yes
Format settings, Matrix : Custom
Format settings, GOP : Variable
Format settings, picture st : Frame
Codec ID : 2
Duration : 10 min 57 s
Bit rate mode : Variable
Bit rate : 3 434 kb/s
Maximum bit rate : 15.0 Mb/s
Width : 704 pixels
Height : 576 pixels
Display aspect ratio : 16:9
Frame rate : 25.000 FPS
Standard : PAL
Color space : YUV
Chroma subsampling : 4:2:0
Bit depth : 8 bits
Scan type : Interlaced
Scan order : Top Field First
Compression mode : Lossy
Bits/(Pixel*Frame) : 0.339
Time code of first frame : 00:00:00:00
Time code source : Group of pictures header
GOP, Open/Closed : Open
GOP, Open/Closed of first f : Closed
Stream size : 269 MiB (90%)
Writing library : (dvd5: Jun 16 2014)

Audio
ID : 7312 (0x1C90)
Menu ID : 7310 (0x1C8E)
Format : MPEG Audio
Format version : Version 1
Format profile : Layer 2
Codec ID : 3
Duration : 10 min 57 s
Bit rate mode : Constant
Bit rate : 192 kb/s
Channel(s) : 2 channels
Sampling rate : 48.0 kHz
Compression mode : Lossy
Delay relative to video : 40 ms
Stream size : 15.1 MiB (5%)Скриншоты

VA — The Best Of Halfstep [Compiled by ZeByte] (2017) MP3

СКАЧАТЬ TORRENT ФАЙЛ

Название: The Best Of Halfstep [Compiled by ZeByte]
Исполнитель: VA
Год: 2017
Жанр: Halfstep

Продолжительность: 03:12:42
Формат/Кодек: MP3
Битрейт аудио: 320 kbps

Релиз от: ZeByte и сообщества:

Трек-лист
01. AkovMirror Image (Feat Twitchee Cordz) [03:44]
02. Qbig & Zenith BInitiate (Dbr Uk Remix) [05:11]
03. EyeseeuPaper Pusher [05:23]
04. InsectWaterbombs [05:01]
05. Logistics Feat. InjaSmoke Rings [04:33]
06. Mystic State, GremlinzDon’t Start (Feat. Megatron Mc [04:59]
07. Camo & KrookedWitchdoctor [04:30]
08. Foreign ConceptFalling Stars (Feat Drs) [05:06]
09. Fre4KncThis Misery (Feat. Mongoose) [05:13]
10. Fracture Feat. Sam Binga & Rider ShafiqueShe Want It Ruff [04:12]
11. Hot PursuitArctic [03:02]
12. RazatTarget Trap [03:42]
13. CirrusSmoke [05:16]
14. Eastcolors, TiiuNaked Skin [05:20]
15. TaelimbThe Wookie Song [05:19]
16. ThingThe Repeater [05:30]
17. ConductConfrontation [05:20]
18. Vrоmm Feat. Ridеr ShаfiqueLеvel Uр (Originаl Mix) [04:50]
19. Enei Feat. DrsCount To Ten Vip [05:23]
20. Kryptomedic, Emphasis, Phlage & KaizaLabels [05:30]
21. Machine CodeSonic Tower Feat. Lockjaw [04:33]
22. Ulterior MotiveChapters (Feat Meyhem Lauren & Brotherman — Icicle Remix) [04:32]
23. VrommEl Sol [04:46]
24. Wintermute & Mc Amon BayCompared Affair (Feat. Cues) [05:43]
25. Alix PerezThe Cut Deepens (Feat. Foreign Beggars) [04:55]
26. SerumRed Eyes (Feat.Inja) [05:16]
27. I am LegionDust Descends ft. Strange U [04:42]
28. FujTalus Nights [06:32]
29. VrommF Plex [05:22]
30. KijeEverything [04:42]
31. KursaWarfare [02:54]
32. ProximaLoose Lights [05:20]
33. Wallwork & RzrDon’t Panic (Deft Remix) [05:08]
34. DrsNo Answers (Feat. Skeptical) [03:41]
35. MalaChanges (Submarine Bootleg) [05:32]
36. NoisiaVigilantes [02:47]
37. Sam BingaBad Bish (Feat. Tt The Artist) [02:52]
38. ThingShine [05:16]
39. VerbTotal Control [05:37]
40. FanuSleepwalking [05:09]

Дополнительная информация: Сегодня хочу познакомить вас с тёмной стороной Drum & Bass музыки — Halfstep‘ом. Для тех, кто не знаком с этим стилем не много расскажу.
Халфстеп (англ. Halfstep) — приём построения драм-н-бэйс трека, особенностью которого является «медленное» звучание, которое создается за счет сокращения количества снейров в квадрате. Ударные этого стиля напоминают бит дабстепа, ускоренного до 170—180 bpm в минуту. Халфстеп очень похож на Dark Dubstep только с более быстрым ритмом.
Жанр очень интересный и заслуживает внимания!
Приятного прослушивания. Буду рад вашим комментариям! Оставайтесь подольше на раздаче.

СерьГа — Приметы (2017) FLAC

СКАЧАТЬ TORRENT ФАЙЛ

Название: Приметы
Исполнитель: СерьГа
Год: 2017
Жанр: Rock
Продолжительность: 00:57:16
Формат/Кодек: FLAC
Битрейт аудио: Lossless

ТрекЛист01. Сказочный лес
02. Приметы
03. Крылья за спиной
04. Блюз Шапито
05. Рай
06. Мы забьём на войну (feat. Варвара Охлобыстина)
07. Победа Белого Света
08. Я — Бурый Медведь
09. Солнечный Чародей
10. Дэвид Боуи
11. Мой друг
12. Так, только так (feat. Леся Гисматулина)
13. Я люблю поезда
14. Чертёнок (Ты мало запросил) [Бонус]

AudioChecker01 -=- 01 СерьГа — Сказочный лес.flac -=- CDDA (100%)
02 -=- 02 СерьГа — Приметы.flac -=- CDDA (100%)
03 -=- 03 СерьГа — Крылья за спиной.flac -=- CDDA (100%)
04 -=- 04 СерьГа — Блюз Шапито.flac -=- CDDA (100%)
05 -=- 05 СерьГа — Рай.flac -=- CDDA (100%)
06 -=- 06 СерьГа — Мы забьем на войну (feat. Варвара Охлобыстина).flac -=- CDDA (100%)
07 -=- 07 СерьГа — Победа белого света.flac -=- CDDA (99%)
08 -=- 08 СерьГа — Я бурый медведь.flac -=- CDDA (100%)
09 -=- 09 СерьГа — Солнечный чародей.flac -=- CDDA (100%)
10 -=- 10 СерьГа — Дэвид Боуи.flac -=- CDDA (100%)
11 -=- 11 СерьГа — Мой друг.flac -=- CDDA (99%)
12 -=- 12 СерьГа — Так, только так (feat. Леся Гисматулина).flac -=- CDDA (100%)
13 -=- 13 СерьГа — Я люблю поезда.flac -=- CDDA (100%)
14 -=- 14 СерьГа — Чертенок (Ты мало запросил) (Bonus Track).flac -=- CDDA (100%)

Сводка 99,86% CDDA

229365540

Turtles – Get Away Lyrics

TURTLES
Get Away Lyrics

You tell me you’ve had it hard
Keep talkin’ about how you’ve been scarred
Well, it’s all a bunch of lies, girl
Told to me by your inverted eyes

Well, I’ve heard your tired song
And know that you have not suffered long
Well, you think that I’m like him, girl
And you’re sure that you can never win
So leave me alone right now
Even though you know I’m down
Get away, get away
We said enough for today

And words cannot pay
I think we said all we can say
And though you’ve done me wrong, girl
I’ll chalk it up to love, and say so long
So leave me alone right now
Even though you know I’m down
Get away, get away
We said enough for today
Get away, get away
We said enough for today

Oh, get away, get away
We said enough for today
We said enough
Oh, get away
Oh, we said enough
Please, get away
Oh, get away
We said enough
Oh, get away
We said enough
Please, get away

Славянский базар в Витебске 2017. Золотой хит (2017) DVB от AND03AND

СКАЧАТЬ TORRENT ФАЙЛ

Информация о фильме
Название: Славянский базар в Витебске 2017. Золотой хит. XXVI Международный фестиваль искусств
Год выхода: 2017
Жанр: Pop, Folk, Rock

О фильме:
18 июля в 17:50 на «Беларусь 3» можно будет увидеть праздничный концерт «Золотой хит». Свои лучшие песни исполнят Тамара Гвердцители, Методие Бужор, Слава, Наташа Королева, Жасмин, Ядвига Поплавская, Инна Афанасьева, Ирина Дорофеева, Надежда Микулич, Хулио Иглесиас-мл., Алишер Каримов, группы «На-На», «Дискомафия», «Отпетые мошенники», Londonbeat, ансамбль «Чаровницы» и другие.

Треклист: 25

Доп. информация: Запись потока *.ts с наземного цифрового телеканала «Беларусь 3».

Благодарность: за помощь с недостающим материалом Bartimeyse и PavelDAS. Обоим большое спасибо!

Страна: Республика Беларусь

Студия: Белтелерадиокомпания
Продолжительность: 01:38:34
Перевод: не требует

Файл
Кодек: AVC (H264)
Качество: DVB
Видео: MPEG4 Video (H264) 720(785)x576 (49:36) 25fps, 2 266 kb/s
Звук: MPEG Audio 48000Hz stereo 256kbps

Скриншоты

Бутусов — Выступление на фестивале Нашествие (2017) WEBRip 720p

СКАЧАТЬ TORRENT ФАЙЛ

Исполнитель/Группа: Вячеслав Бктусов
Жанр: Rock
Год выпуска: 2017
Продолжительность: 00:58:07

Описание: Выступление Вячеслава Бктусова на фестивале Нашествие 7 июля 2017 года.

Формат: MKV
Качество: WEBRip 720p
Видео кодек: H.264
Аудио кодек: AAC
Видео: H.264 1280 x 720 (16:9) 30 fps 4 350 Kbps
Аудио: AAC 48000Hz, 2ch, 192 kbps

Треклист1.Гудбай, Америка
2.Прогулки на воде
3.Тутанхамон
4.Одинокая птица
5.Взгляд с экрана
6.Казанова
7.Эта музыка будет вечной
8.Зверь
9.Хлоп-хлоп
10.Шар цвета хаки
11.Скованные одной цепью
12.Я хочу быть с тобойMedaInfoComplete name : D:Butusov_2017.mkv
Format : Matroska
Format version : Version 4 / Version 2
File size : 1.84 GiB
Duration : 58 min 7 s
Overall bit rate : 4 534 kb/s
Encoded date : UTC 2017-07-16 03:09:21
Writing application : mkvmerge v8.3.0 (‘Over the Horizon’) 64bit
Writing library : libebml v1.3.1 + libmatroska v1.4.2

Video
ID : 1
Format : AVC
Format/Info : Advanced Video Codec
Format profile : Main@L4.1
Format settings, CABAC : Yes
Format settings, ReFrames : 4 frames
Codec ID : V_MPEG4/ISO/AVC
Duration : 58 min 7 s
Bit rate : 4 341 kb/s
Width : 1 280 pixels
Height : 720 pixels
Display aspect ratio : 1.944
Original display aspect rat : 1.945
Frame rate mode : Constant
Frame rate : 30.000 FPS
Standard : NTSC
Color space : YUV
Chroma subsampling : 4:2:0
Bit depth : 8 bits
Scan type : Progressive
Bits/(Pixel*Frame) : 0.157
Stream size : 1.76 GiB (96%)
Language : English
Default : Yes
Forced : No
Color range : Limited
Color primaries : BT.709
Transfer characteristics : BT.709
Matrix coefficients : BT.709

Audio
ID : 2
Format : AAC
Format/Info : Advanced Audio Codec
Format profile : LC
Codec ID : A_AAC
Duration : 58 min 7 s
Bit rate : 192 kb/s
Channel(s) : 2 channels
Channel positions : Front: L R
Sampling rate : 48.0 kHz
Frame rate : 46.875 FPS (1024 spf)
Compression mode : Lossy
Stream size : 78.7 MiB (4%)
Language : English
Default : Yes
Forced : NoСкриншоты

Источник aRutor.org

Superfruit – Sexy Ladies Lyrics

SUPERFRUIT
Sexy Ladies Lyrics

Oh baby, hey!

Spend three hours on your hair (For what?)

But he don’t notice, he don’t care
Goddamn, you looking good
He don’t appreciate ya’ like a real man should

All my independent ladies, all my independent fellas
I’m just here to make your ex-man jealous
Dance the night away with me

I can keep you warm
Be the candy on your arm
So let’s take a shot, or two
Dance the night away with you

Single ladies, got no ring on your hand
Baby, I’ll be your stand-in man for tonight
Sexy ladies, no, I ain’t on your team
But you gonna be my queen for tonight

Oh, I’ll be sleeping in your bed
Watching old re-runs of Friends
No, I won’t ever make a move on you, no
But I heard your brother’s pretty cute

All my independent ladies, all my independent fellas
I’m just here to make your ex man jealous
Dance the night away with me

I can keep you warm
Be the candy on your arm
So let’s take a shot, or two
Dance the night away with you

Single ladies, got no ring on your hand
Baby, I’ll be your stand-in man for tonight
Sexy ladies, no, I ain’t on your team
But you gonna be my queen for tonight

All my ladies, all my handsome men
If you out here single as Hell, just raise your hands
You’re amazing, you’re a perfect ten
And if you out here single as Hell, just raise your hands

All my independent ladies, all my independent fellas
I’m just here to make your ex-man jealous
Dance the night away with me

I can keep you warm
Be the candy on your arm
So let’s take a shot, or two
Dance the night away with you

Single ladies, got no ring on your hand
Baby, I’ll be your stand-in man for tonight
Sexy ladies, no, I ain’t on your team
But you gonna be my queen for tonight

Shout out to my sexy ladies
Oh, baby

Alana Lee – Perfect Storm Lyrics

ALANA LEE
Perfect Storm Lyrics

Taking off from the dock it
It looked like such a clear day
Calm waters and blue sky
As far as the eye could see

I left my compass on the shore
What would I need it for
I didn’t bring a lifeboat
I thought my ship was unsinkable

Who would have known
Something so beautiful on the surface
Given half the chance
Would pull me under like I was worthless

And now I feel my heart sinking
Slowly taking water in

Im calling out may day, mayday
Can anybody hear me, hear me
Im calling out may day, mayday
Feels like im caught in a perfect storm
Im calling out may day, mayday
Can anybody save me
Just like ships wreck, hearts break
All along I was headed for such a perfect storm

I know that im not the first
Im sure I wont be the last
I see someone in the distance
Looks like our sails got slashed

We’re on course for disaster
Iceburg up ahead but I cant turn any faster
Your kisses make me close my eyes
I think ill drown in your arms tonight

Who would have known
Something so beautiful on the surface
Given half the chance
Would pull me under ‘till I was breathless
The wind is picking up again
And now the waves come crashing in

Im calling out may day, mayday
Can anybody hear me, hear me
Im calling out may day, mayday
Feels like im caught in a perfect storm
Im calling out may day, mayday
Can anybody save me
Just like ships wreck, hearts break
All along I was headed for such a perfect storm

Can you hear me
When im screaming
Someone hear my SOS
Im calling out
Can you hear me

Calling out, calling out
Somebody save me
All along I was headed for such a perfect storm
Such a perfect storm
Your such a perfect storm